  0
SECTION
  2
HEADER
  9
$ACADVER
  1
AC1015
  9
$ACADMAINTVER
 70
     6
  9
$DWGCODEPAGE
  3
ANSI_1252
  9
$INSBASE
 10
0.0
 20
0.0
 30
0.0
  9
$EXTMIN
 10
-85.73985996170931
 20
-129.1649686581778
 30
0.0
  9
$EXTMAX
 10
1263.396363331402
 20
682.26391742075
 30
0.0
  9
$LIMMIN
 10
0.0
 20
0.0
  9
$LIMMAX
 10
420.0
 20
297.0
  9
$ORTHOMODE
 70
     0
  9
$REGENMODE
 70
     1
  9
$FILLMODE
 70
     1
  9
$QTEXTMODE
 70
     0
  9
$MIRRTEXT
 70
     0
  9
$LTSCALE
 40
1.0
  9
$ATTMODE
 70
     1
  9
$TEXTSIZE
 40
2.5
  9
$TRACEWID
 40
1.0
  9
$TEXTSTYLE
  7
Standard
  9
$CLAYER
  8
0
  9
$CELTYPE
  6
ByLayer
  9
$CECOLOR
 62
   256
  9
$CELTSCALE
 40
1.0
  9
$DISPSILH
 70
     0
  9
$DIMSCALE
 40
1.0
  9
$DIMASZ
 40
2.5
  9
$DIMEXO
 40
0.625
  9
$DIMDLI
 40
3.75
  9
$DIMRND
 40
0.0
  9
$DIMDLE
 40
0.0
  9
$DIMEXE
 40
1.25
  9
$DIMTP
 40
0.0
  9
$DIMTM
 40
0.0
  9
$DIMTXT
 40
2.5
  9
$DIMCEN
 40
2.5
  9
$DIMTSZ
 40
0.0
  9
$DIMTOL
 70
     0
  9
$DIMLIM
 70
     0
  9
$DIMTIH
 70
     0
  9
$DIMTOH
 70
     0
  9
$DIMSE1
 70
     0
  9
$DIMSE2
 70
     0
  9
$DIMTAD
 70
     1
  9
$DIMZIN
 70
     8
  9
$DIMBLK
  1

  9
$DIMASO
 70
     1
  9
$DIMSHO
 70
     1
  9
$DIMPOST
  1

  9
$DIMAPOST
  1

  9
$DIMALT
 70
     0
  9
$DIMALTD
 70
     3
  9
$DIMALTF
 40
0.03937007874016
  9
$DIMLFAC
 40
1.0
  9
$DIMTOFL
 70
     1
  9
$DIMTVP
 40
0.0
  9
$DIMTIX
 70
     0
  9
$DIMSOXD
 70
     0
  9
$DIMSAH
 70
     0
  9
$DIMBLK1
  1

  9
$DIMBLK2
  1

  9
$DIMSTYLE
  2
ISO-25
  9
$DIMCLRD
 70
     0
  9
$DIMCLRE
 70
     0
  9
$DIMCLRT
 70
     0
  9
$DIMTFAC
 40
1.0
  9
$DIMGAP
 40
0.625
  9
$DIMJUST
 70
     0
  9
$DIMSD1
 70
     0
  9
$DIMSD2
 70
     0
  9
$DIMTOLJ
 70
     0
  9
$DIMTZIN
 70
     8
  9
$DIMALTZ
 70
     0
  9
$DIMALTTZ
 70
     0
  9
$DIMUPT
 70
     0
  9
$DIMDEC
 70
     2
  9
$DIMTDEC
 70
     2
  9
$DIMALTU
 70
     2
  9
$DIMALTTD
 70
     3
  9
$DIMTXSTY
  7
Standard
  9
$DIMAUNIT
 70
     0
  9
$DIMADEC
 70
     0
  9
$DIMALTRND
 40
0.0
  9
$DIMAZIN
 70
     0
  9
$DIMDSEP
 70
    44
  9
$DIMATFIT
 70
     3
  9
$DIMFRAC
 70
     0
  9
$DIMLDRBLK
  1

  9
$DIMLUNIT
 70
     2
  9
$DIMLWD
 70
    -2
  9
$DIMLWE
 70
    -2
  9
$DIMTMOVE
 70
     0
  9
$LUNITS
 70
     2
  9
$LUPREC
 70
     3
  9
$SKETCHINC
 40
1.0
  9
$FILLETRAD
 40
19.0
  9
$AUNITS
 70
     0
  9
$AUPREC
 70
     0
  9
$MENU
  1
.
  9
$ELEVATION
 40
0.0
  9
$PELEVATION
 40
0.0
  9
$THICKNESS
 40
0.0
  9
$LIMCHECK
 70
     0
  9
$CHAMFERA
 40
10.0
  9
$CHAMFERB
 40
10.0
  9
$CHAMFERC
 40
20.0
  9
$CHAMFERD
 40
0.0
  9
$SKPOLY
 70
     0
  9
$TDCREATE
 40
2455023.074859514
  9
$TDUCREATE
 40
2455022.637359514
  9
$TDUPDATE
 40
2456995.672075185
  9
$TDUUPDATE
 40
2456995.234575185
  9
$TDINDWG
 40
0.3350535417
  9
$TDUSRTIMER
 40
2456995.234438449
  9
$USRTIMER
 70
     1
  9
$ANGBASE
 50
0.0
  9
$ANGDIR
 70
     0
  9
$PDMODE
 70
     0
  9
$PDSIZE
 40
0.0
  9
$PLINEWID
 40
0.0
  9
$SPLFRAME
 70
     0
  9
$SPLINETYPE
 70
     6
  9
$SPLINESEGS
 70
     8
  9
$HANDSEED
  5
2AF
  9
$SURFTAB1
 70
     6
  9
$SURFTAB2
 70
     6
  9
$SURFTYPE
 70
     6
  9
$SURFU
 70
     6
  9
$SURFV
 70
     6
  9
$UCSBASE
  2

  9
$UCSNAME
  2

  9
$UCSORG
 10
0.0
 20
0.0
 30
0.0
  9
$UCSXDIR
 10
1.0
 20
0.0
 30
0.0
  9
$UCSYDIR
 10
0.0
 20
1.0
 30
0.0
  9
$UCSORTHOREF
  2

  9
$UCSORTHOVIEW
 70
     0
  9
$UCSORGTOP
 10
0.0
 20
0.0
 30
0.0
  9
$UCSORGBOTTOM
 10
0.0
 20
0.0
 30
0.0
  9
$UCSORGLEFT
 10
0.0
 20
0.0
 30
0.0
  9
$UCSORGRIGHT
 10
0.0
 20
0.0
 30
0.0
  9
$UCSORGFRONT
 10
0.0
 20
0.0
 30
0.0
  9
$UCSORGBACK
 10
0.0
 20
0.0
 30
0.0
  9
$PUCSBASE
  2

  9
$PUCSNAME
  2

  9
$PUCSORG
 10
0.0
 20
0.0
 30
0.0
  9
$PUCSXDIR
 10
1.0
 20
0.0
 30
0.0
  9
$PUCSYDIR
 10
0.0
 20
1.0
 30
0.0
  9
$PUCSORTHOREF
  2

  9
$PUCSORTHOVIEW
 70
     0
  9
$PUCSORGTOP
 10
0.0
 20
0.0
 30
0.0
  9
$PUCSORGBOTTOM
 10
0.0
 20
0.0
 30
0.0
  9
$PUCSORGLEFT
 10
0.0
 20
0.0
 30
0.0
  9
$PUCSORGRIGHT
 10
0.0
 20
0.0
 30
0.0
  9
$PUCSORGFRONT
 10
0.0
 20
0.0
 30
0.0
  9
$PUCSORGBACK
 10
0.0
 20
0.0
 30
0.0
  9
$USERI1
 70
     0
  9
$USERI2
 70
     0
  9
$USERI3
 70
     0
  9
$USERI4
 70
     0
  9
$USERI5
 70
     0
  9
$USERR1
 40
0.0
  9
$USERR2
 40
0.0
  9
$USERR3
 40
0.0
  9
$USERR4
 40
0.0
  9
$USERR5
 40
0.0
  9
$WORLDVIEW
 70
     1
  9
$SHADEDGE
 70
     3
  9
$SHADEDIF
 70
    70
  9
$TILEMODE
 70
     1
  9
$MAXACTVP
 70
    64
  9
$PINSBASE
 10
0.0
 20
0.0
 30
0.0
  9
$PLIMCHECK
 70
     0
  9
$PEXTMIN
 10
1.000000000000000E+20
 20
1.000000000000000E+20
 30
1.000000000000000E+20
  9
$PEXTMAX
 10
-1.000000000000000E+20
 20
-1.000000000000000E+20
 30
-1.000000000000000E+20
  9
$PLIMMIN
 10
0.0
 20
0.0
  9
$PLIMMAX
 10
0.0
 20
0.0
  9
$UNITMODE
 70
     0
  9
$VISRETAIN
 70
     1
  9
$PLINEGEN
 70
     0
  9
$PSLTSCALE
 70
     1
  9
$TREEDEPTH
 70
  3020
  9
$CMLSTYLE
  2
Standard
  9
$CMLJUST
 70
     0
  9
$CMLSCALE
 40
20.0
  9
$PROXYGRAPHICS
 70
     1
  9
$MEASUREMENT
 70
     1
  9
$CELWEIGHT
370
    -1
  9
$ENDCAPS
280
     0
  9
$JOINSTYLE
280
     0
  9
$LWDISPLAY
290
     0
  9
$INSUNITS
 70
     4
  9
$HYPERLINKBASE
  1

  9
$STYLESHEET
  1

  9
$XEDIT
290
     1
  9
$CEPSNTYPE
380
     0
  9
$PSTYLEMODE
290
     1
  9
$FINGERPRINTGUID
  2
{EC6BB858-51AA-46EC-B484-6C9CC7AB3E2E}
  9
$VERSIONGUID
  2
{FAEB1C32-E019-11D5-929B-00C0DF256EC4}
  9
$EXTNAMES
290
     1
  9
$PSVPSCALE
 40
0.0
  9
$OLESTARTUP
290
     0
  0
ENDSEC
  0
SECTION
  2
CLASSES
  0
CLASS
  1
ACDBDICTIONARYWDFLT
  2
AcDbDictionaryWithDefault
  3
ObjectDBX Classes
 90
        0
280
     0
281
     0
  0
CLASS
  1
VISUALSTYLE
  2
AcDbVisualStyle
  3
ObjectDBX Classes
 90
     4095
280
     0
281
     0
  0
CLASS
  1
TABLESTYLE
  2
AcDbTableStyle
  3
ObjectDBX Classes
 90
     4095
280
     0
281
     0
  0
CLASS
  1
DICTIONARYVAR
  2
AcDbDictionaryVar
  3
ObjectDBX Classes
 90
        0
280
     0
281
     0
  0
CLASS
  1
SCALE
  2
AcDbScale
  3
ObjectDBX Classes
 90
     1153
280
     0
281
     0
  0
CLASS
  1
CELLSTYLEMAP
  2
AcDbCellStyleMap
  3
ObjectDBX Classes
 90
     1152
280
     0
281
     0
  0
CLASS
  1
RASTERVARIABLES
  2
AcDbRasterVariables
  3
ISM
 90
        0
280
     0
281
     0
  0
CLASS
  1
MATERIAL
  2
AcDbMaterial
  3
ObjectDBX Classes
 90
     1153
280
     0
281
     0
  0
CLASS
  1
MLEADERSTYLE
  2
AcDbMLeaderStyle
  3
ACDB_MLEADERSTYLE_CLASS
 90
     4095
280
     0
281
     0
  0
CLASS
  1
SUN
  2
AcDbSun
  3
SCENEOE
 90
     1153
280
     0
281
     0
  0
CLASS
  1
DIMASSOC
  2
AcDbDimAssoc
  3
"AcDbDimAssoc|Product Desc:     AcDim ARX App For Dimension|Company:          Autodesk, Inc.|WEB Address:      www.autodesk.com"
 90
        0
280
     0
281
     0
  0
CLASS
  1
ACDBPLACEHOLDER
  2
AcDbPlaceHolder
  3
ObjectDBX Classes
 90
        0
280
     0
281
     0
  0
CLASS
  1
LAYOUT
  2
AcDbLayout
  3
ObjectDBX Classes
 90
        0
280
     0
281
     0
  0
ENDSEC
  0
SECTION
  2
TABLES
  0
TABLE
  2
VPORT
  5
8
330
0
100
AcDbSymbolTable
 70
     1
  0
VPORT
  5
29
330
8
100
AcDbSymbolTableRecord
100
AcDbViewportTableRecord
  2
*Active
 70
     0
 10
0.0
 20
0.0
 11
1.0
 21
1.0
 12
863.2415040005734
 22
284.9665421459915
 13
0.0
 23
0.0
 14
10.0
 24
10.0
 15
10.0
 25
10.0
 16
0.0
 26
0.0
 36
1.0
 17
-134.1869158878504
 27
0.0
 37
0.0
 40
1175.537109375001
 41
1.799736495388669
 42
50.0
 43
0.0
 44
0.0
 50
0.0
 51
0.0
 71
    16
 72
  1000
 73
     1
 74
     3
 75
     0
 76
     0
 77
     0
 78
     0
281
     0
 65
     1
110
0.0
120
0.0
130
0.0
111
1.0
121
0.0
131
0.0
112
0.0
122
1.0
132
0.0
 79
     0
146
0.0
  0
ENDTAB
  0
TABLE
  2
LTYPE
  5
5
330
0
100
AcDbSymbolTable
 70
     2
  0
LTYPE
  5
14
330
5
100
AcDbSymbolTableRecord
100
AcDbLinetypeTableRecord
  2
ByBlock
 70
     0
  3

 72
    65
 73
     0
 40
0.0
  0
LTYPE
  5
15
330
5
100
AcDbSymbolTableRecord
100
AcDbLinetypeTableRecord
  2
ByLayer
 70
     0
  3

 72
    65
 73
     0
 40
0.0
  0
LTYPE
  5
16
330
5
100
AcDbSymbolTableRecord
100
AcDbLinetypeTableRecord
  2
Continuous
 70
     0
  3
Solid line
 72
    65
 73
     0
 40
0.0
  0
LTYPE
  5
E8
330
5
100
AcDbSymbolTableRecord
100
AcDbLinetypeTableRecord
  2
DASHED
 70
     0
  3
Dashed __  __  __  __  __  __  __  __  __  __  
 72
    65
 73
     2
 40
19.05
 49
12.7
 74
     0
 49
-6.35
 74
     0
  0
ENDTAB
  0
TABLE
  2
LAYER
  5
2
330
0
100
AcDbSymbolTable
 70
     2
  0
LAYER
  5
10
330
2
100
AcDbSymbolTableRecord
100
AcDbLayerTableRecord
  2
0
 70
     0
 62
     7
  6
Continuous
370
    -3
390
F
  0
LAYER
  5
83
330
2
100
AcDbSymbolTableRecord
100
AcDbLayerTableRecord
  2
Defpoints
 70
     0
 62
     7
  6
Continuous
290
     0
370
    -3
390
F
  0
ENDTAB
  0
TABLE
  2
STYLE
  5
3
330
0
100
AcDbSymbolTable
 70
     1
  0
STYLE
  5
11
330
3
100
AcDbSymbolTableRecord
100
AcDbTextStyleTableRecord
  2
Standard
 70
     0
 40
0.0
 41
1.0
 50
0.0
 71
     0
 42
2.5
  3
arial.ttf
  4

1001
ACAD
1000
Arial
1071
        0
  0
ENDTAB
  0
TABLE
  2
VIEW
  5
6
330
0
100
AcDbSymbolTable
 70
     0
  0
ENDTAB
  0
TABLE
  2
UCS
  5
7
330
0
100
AcDbSymbolTable
 70
     0
  0
ENDTAB
  0
TABLE
  2
APPID
  5
9
330
0
100
AcDbSymbolTable
 70
     2
  0
APPID
  5
12
330
9
100
AcDbSymbolTableRecord
100
AcDbRegAppTableRecord
  2
ACAD
 70
     0
  0
APPID
  5
B1
330
9
100
AcDbSymbolTableRecord
100
AcDbRegAppTableRecord
  2
ACAD_DSTYLE_DIMRADIAL_EXTENSION
 70
     0
  0
ENDTAB
  0
TABLE
  2
DIMSTYLE
  5
A
330
0
100
AcDbSymbolTable
 70
     1
100
AcDbDimStyleTable
  0
DIMSTYLE
105
27
102
{ACAD_REACTORS
330
93
330
A2
330
E7
330
113
330
114
330
123
330
132
330
159
330
168
330
177
330
184
330
192
330
1A1
330
1DA
330
245
102
}
330
A
100
AcDbSymbolTableRecord
100
AcDbDimStyleTableRecord
  2
ISO-25
 70
     0
 41
2.5
 42
0.625
 43
3.75
 44
1.25
 73
     0
 74
     0
 77
     1
 78
     8
140
2.5
141
2.5
143
0.03937007874016
147
0.625
171
     3
172
     1
178
     0
271
     2
272
     2
274
     3
278
    44
283
     0
284
     8
340
11
  0
ENDTAB
  0
TABLE
  2
BLOCK_RECORD
  5
1
330
0
100
AcDbSymbolTable
 70
    21
  0
BLOCK_RECORD
  5
1F
330
1
100
AcDbSymbolTableRecord
100
AcDbBlockTableRecord
  2
*Model_Space
340
22
  0
BLOCK_RECORD
  5
1B
330
1
100
AcDbSymbolTableRecord
100
AcDbBlockTableRecord
  2
*Paper_Space
340
1E
  0
BLOCK_RECORD
  5
23
330
1
100
AcDbSymbolTableRecord
100
AcDbBlockTableRecord
  2
*Paper_Space0
340
26
  0
BLOCK_RECORD
  5
96
330
1
100
AcDbSymbolTableRecord
100
AcDbBlockTableRecord
  2
*D2
340
0
  0
BLOCK_RECORD
  5
A5
330
1
100
AcDbSymbolTableRecord
100
AcDbBlockTableRecord
  2
*D3
340
0
  0
BLOCK_RECORD
  5
117
330
1
100
AcDbSymbolTableRecord
100
AcDbBlockTableRecord
  2
*D7
340
0
  0
BLOCK_RECORD
  5
126
330
1
100
AcDbSymbolTableRecord
100
AcDbBlockTableRecord
  2
*D8
340
0
  0
BLOCK_RECORD
  5
135
330
1
100
AcDbSymbolTableRecord
100
AcDbBlockTableRecord
  2
*D9
340
0
  0
BLOCK_RECORD
  5
15C
330
1
100
AcDbSymbolTableRecord
100
AcDbBlockTableRecord
  2
*D11
340
0
  0
BLOCK_RECORD
  5
16B
330
1
100
AcDbSymbolTableRecord
100
AcDbBlockTableRecord
  2
*D12
340
0
  0
BLOCK_RECORD
  5
17A
330
1
100
AcDbSymbolTableRecord
100
AcDbBlockTableRecord
  2
*D13
340
0
  0
BLOCK_RECORD
  5
187
330
1
100
AcDbSymbolTableRecord
100
AcDbBlockTableRecord
  2
*D14
340
0
  0
BLOCK_RECORD
  5
195
330
1
100
AcDbSymbolTableRecord
100
AcDbBlockTableRecord
  2
*D15
340
0
  0
BLOCK_RECORD
  5
1A4
330
1
100
AcDbSymbolTableRecord
100
AcDbBlockTableRecord
  2
*D16
340
0
  0
BLOCK_RECORD
  5
248
330
1
100
AcDbSymbolTableRecord
100
AcDbBlockTableRecord
  2
*D19
340
0
  0
ENDTAB
  0
ENDSEC
  0
SECTION
  2
BLOCKS
  0
BLOCK
  5
20
330
1F
100
AcDbEntity
  8
0
100
AcDbBlockBegin
  2
*Model_Space
 70
     0
 10
0.0
 20
0.0
 30
0.0
  3
*Model_Space
  1
*Model_Space
  0
ENDBLK
  5
21
330
1F
100
AcDbEntity
  8
0
100
AcDbBlockEnd
  0
BLOCK
  5
1C
330
1B
100
AcDbEntity
 67
     1
  8
0
100
AcDbBlockBegin
  2
*Paper_Space
 70
     0
 10
0.0
 20
0.0
 30
0.0
  3
*Paper_Space
  1
*Paper_Space
  0
ENDBLK
  5
1D
330
1B
100
AcDbEntity
 67
     1
  8
0
100
AcDbBlockEnd
  0
BLOCK
  5
24
330
23
100
AcDbEntity
  8
0
100
AcDbBlockBegin
  2
*Paper_Space0
 70
     0
 10
0.0
 20
0.0
 30
0.0
  3
*Paper_Space0
  1
*Paper_Space0
  0
ENDBLK
  5
25
330
23
100
AcDbEntity
  8
0
100
AcDbBlockEnd
  0
BLOCK
  5
97
330
96
100
AcDbEntity
  8
0
100
AcDbBlockBegin
  2
*D2
 70
     1
 10
0.0
 20
0.0
 30
0.0
  3
*D2
  1
*D2
  0
LINE
  5
99
330
96
100
AcDbEntity
  8
0
 62
     0
370
    -2
100
AcDbLine
 10
90.89671936758893
 20
522.4867588932805
 30
0.0
 11
90.89671936758896
 21
628.9440198091652
 31
0.0
  0
LINE
  5
9A
330
96
100
AcDbEntity
  8
0
 62
     0
370
    -2
100
AcDbLine
 10
820.896719367589
 20
522.4867588932805
 30
0.0
 11
820.896719367589
 21
628.9440198091652
 31
0.0
  0
LINE
  5
9B
330
96
100
AcDbEntity
  8
0
 62
     0
370
    -2
100
AcDbLine
 10
115.896719367589
 20
616.4440198091652
 30
0.0
 11
795.896719367589
 21
616.4440198091652
 31
0.0
  0
SOLID
  5
9C
330
96
100
AcDbEntity
  8
0
 62
     0
100
AcDbTrace
 10
115.896719367589
 20
620.6106864758318
 30
0.0
 11
115.896719367589
 21
612.2773531424986
 31
0.0
 12
90.89671936758896
 22
616.4440198091652
 32
0.0
 13
90.89671936758896
 23
616.4440198091652
 33
0.0
  0
SOLID
  5
9D
330
96
100
AcDbEntity
  8
0
 62
     0
100
AcDbTrace
 10
795.896719367589
 20
612.2773531424986
 30
0.0
 11
795.896719367589
 21
620.6106864758318
 31
0.0
 12
820.896719367589
 22
616.4440198091652
 32
0.0
 13
820.896719367589
 23
616.4440198091652
 33
0.0
  0
MTEXT
  5
9E
330
96
100
AcDbEntity
  8
0
 62
     0
100
AcDbMText
 10
430.896719367589
 20
635.4565198091652
 30
0.0
 40
25.0
 41
0.0
 71
     5
 72
     1
  1
730
 73
     1
 44
1.0
  0
POINT
  5
9F
330
96
100
AcDbEntity
  8
Defpoints
 62
     0
100
AcDbPoint
 10
90.89671936758893
 20
516.2367588932805
 30
0.0
  0
POINT
  5
A0
330
96
100
AcDbEntity
  8
Defpoints
 62
     0
100
AcDbPoint
 10
820.896719367589
 20
516.2367588932805
 30
0.0
  0
POINT
  5
A1
330
96
100
AcDbEntity
  8
Defpoints
 62
     0
100
AcDbPoint
 10
820.896719367589
 20
616.4440198091652
 30
0.0
  0
ENDBLK
  5
98
330
96
100
AcDbEntity
  8
0
100
AcDbBlockEnd
  0
BLOCK
  5
A6
330
A5
100
AcDbEntity
  8
0
100
AcDbBlockBegin
  2
*D3
 70
     1
 10
0.0
 20
0.0
 30
0.0
  3
*D3
  1
*D3
  0
LINE
  5
A8
330
A5
100
AcDbEntity
  8
0
 62
     0
370
    -2
100
AcDbLine
 10
104.6467193675889
 20
536.2367588932805
 30
0.0
 11
-17.07485996170935
 21
536.2367588932805
 31
0.0
  0
LINE
  5
A9
330
A5
100
AcDbEntity
  8
0
 62
     0
370
    -2
100
AcDbLine
 10
104.646719367589
 20
46.23675889328067
 30
0.0
 11
-17.07485996170938
 21
46.23675889328067
 31
0.0
  0
LINE
  5
AA
330
A5
100
AcDbEntity
  8
0
 62
     0
370
    -2
100
AcDbLine
 10
-4.57485996170935
 20
511.2367588932805
 30
0.0
 11
-4.574859961709377
 21
71.23675889328067
 31
0.0
  0
SOLID
  5
AB
330
A5
100
AcDbEntity
  8
0
 62
     0
100
AcDbTrace
 10
-0.4081932950426834
 20
511.2367588932805
 30
0.0
 11
-8.741526628376018
 21
511.2367588932805
 31
0.0
 12
-4.574859961709349
 22
536.2367588932805
 32
0.0
 13
-4.574859961709349
 23
536.2367588932805
 33
0.0
  0
SOLID
  5
AC
330
A5
100
AcDbEntity
  8
0
 62
     0
100
AcDbTrace
 10
-8.741526628376043
 20
71.23675889328067
 30
0.0
 11
-0.4081932950427101
 21
71.23675889328067
 31
0.0
 12
-4.574859961709379
 22
46.23675889328067
 32
0.0
 13
-4.574859961709379
 23
46.23675889328067
 33
0.0
  0
MTEXT
  5
AD
330
A5
100
AcDbEntity
  8
0
 62
     0
100
AcDbMText
 10
-23.58735996170935
 20
291.2367588932806
 30
0.0
 40
25.0
 41
0.0
 71
     5
 72
     1
  1
490
 11
6.162870667306994E-17
 21
1.0
 31
0.0
 73
     1
 44
1.0
  0
POINT
  5
AE
330
A5
100
AcDbEntity
  8
Defpoints
 62
     0
100
AcDbPoint
 10
110.8967193675889
 20
536.2367588932805
 30
0.0
  0
POINT
  5
AF
330
A5
100
AcDbEntity
  8
Defpoints
 62
     0
100
AcDbPoint
 10
110.896719367589
 20
46.23675889328067
 30
0.0
  0
POINT
  5
B0
330
A5
100
AcDbEntity
  8
Defpoints
 62
     0
100
AcDbPoint
 10
-4.574859961709379
 20
46.23675889328067
 30
0.0
  0
ENDBLK
  5
A7
330
A5
100
AcDbEntity
  8
0
100
AcDbBlockEnd
  0
BLOCK
  5
118
330
117
100
AcDbEntity
  8
0
100
AcDbBlockBegin
  2
*D7
 70
     1
 10
0.0
 20
0.0
 30
0.0
  3
*D7
  1
*D7
  0
LINE
  5
11A
330
117
100
AcDbEntity
  8
0
 62
     0
370
    -2
100
AcDbLine
 10
832.1432625120927
 20
546.2367588932806
 30
0.0
 11
954.6902951545349
 21
546.2367588932806
 31
0.0
  0
LINE
  5
11B
330
117
100
AcDbEntity
  8
0
 62
     0
370
    -2
100
AcDbLine
 10
832.1432625120927
 20
36.23675889328069
 30
0.0
 11
954.6902951545349
 21
36.23675889328069
 31
0.0
  0
LINE
  5
11C
330
117
100
AcDbEntity
  8
0
 62
     0
370
    -2
100
AcDbLine
 10
942.1902951545349
 20
521.2367588932806
 30
0.0
 11
942.1902951545349
 21
61.23675889328069
 31
0.0
  0
SOLID
  5
11D
330
117
100
AcDbEntity
  8
0
 62
     0
100
AcDbTrace
 10
946.3569618212015
 20
521.2367588932806
 30
0.0
 11
938.0236284878682
 21
521.2367588932806
 31
0.0
 12
942.1902951545349
 22
546.2367588932806
 32
0.0
 13
942.1902951545349
 23
546.2367588932806
 33
0.0
  0
SOLID
  5
11E
330
117
100
AcDbEntity
  8
0
 62
     0
100
AcDbTrace
 10
938.0236284878682
 20
61.23675889328069
 30
0.0
 11
946.3569618212015
 21
61.23675889328069
 31
0.0
 12
942.1902951545349
 22
36.23675889328069
 32
0.0
 13
942.1902951545349
 23
36.23675889328069
 33
0.0
  0
MTEXT
  5
11F
330
117
100
AcDbEntity
  8
0
 62
     0
100
AcDbMText
 10
923.1777951545348
 20
291.2367588932806
 30
0.0
 40
25.0
 41
0.0
 71
     5
 72
     1
  1
510
 11
0.0
 21
1.0
 31
0.0
 73
     1
 44
1.0
  0
POINT
  5
120
330
117
100
AcDbEntity
  8
Defpoints
 62
     0
100
AcDbPoint
 10
825.8932625120927
 20
546.2367588932806
 30
0.0
  0
POINT
  5
121
330
117
100
AcDbEntity
  8
Defpoints
 62
     0
100
AcDbPoint
 10
825.8932625120927
 20
36.23675889328069
 30
0.0
  0
POINT
  5
122
330
117
100
AcDbEntity
  8
Defpoints
 62
     0
100
AcDbPoint
 10
942.1902951545349
 20
36.23675889328069
 30
0.0
  0
ENDBLK
  5
119
330
117
100
AcDbEntity
  8
0
100
AcDbBlockEnd
  0
BLOCK
  5
127
330
126
100
AcDbEntity
  8
0
100
AcDbBlockBegin
  2
*D8
 70
     1
 10
0.0
 20
0.0
 30
0.0
  3
*D8
  1
*D8
  0
LINE
  5
129
330
126
100
AcDbEntity
  8
0
 62
     0
370
    -2
100
AcDbLine
 10
80.89326251209286
 20
34.98675889328067
 30
0.0
 11
80.89326251209286
 21
-47.38912814822913
 31
0.0
  0
LINE
  5
12A
330
126
100
AcDbEntity
  8
0
 62
     0
370
    -2
100
AcDbLine
 10
830.8932625120927
 20
34.98675889328069
 30
0.0
 11
830.8932625120927
 21
-47.38912814822913
 31
0.0
  0
LINE
  5
12B
330
126
100
AcDbEntity
  8
0
 62
     0
370
    -2
100
AcDbLine
 10
105.8932625120929
 20
-34.88912814822913
 30
0.0
 11
805.8932625120927
 21
-34.88912814822913
 31
0.0
  0
SOLID
  5
12C
330
126
100
AcDbEntity
  8
0
 62
     0
100
AcDbTrace
 10
105.8932625120929
 20
-30.72246148156247
 30
0.0
 11
105.8932625120929
 21
-39.0557948148958
 31
0.0
 12
80.89326251209286
 22
-34.88912814822913
 32
0.0
 13
80.89326251209286
 23
-34.88912814822913
 33
0.0
  0
SOLID
  5
12D
330
126
100
AcDbEntity
  8
0
 62
     0
100
AcDbTrace
 10
805.8932625120927
 20
-39.0557948148958
 30
0.0
 11
805.8932625120927
 21
-30.72246148156247
 31
0.0
 12
830.8932625120927
 22
-34.88912814822913
 32
0.0
 13
830.8932625120927
 23
-34.88912814822913
 33
0.0
  0
MTEXT
  5
12E
330
126
100
AcDbEntity
  8
0
 62
     0
100
AcDbMText
 10
434.204298837681
 20
-15.87662814822913
 30
0.0
 40
25.0
 41
0.0
 71
     5
 72
     1
  1
750
 73
     1
 44
1.0
  0
POINT
  5
12F
330
126
100
AcDbEntity
  8
Defpoints
 62
     0
100
AcDbPoint
 10
80.89326251209286
 20
41.23675889328067
 30
0.0
  0
POINT
  5
130
330
126
100
AcDbEntity
  8
Defpoints
 62
     0
100
AcDbPoint
 10
830.8932625120927
 20
41.23675889328069
 30
0.0
  0
POINT
  5
131
330
126
100
AcDbEntity
  8
Defpoints
 62
     0
100
AcDbPoint
 10
830.8932625120927
 20
-34.88912814822913
 30
0.0
  0
ENDBLK
  5
128
330
126
100
AcDbEntity
  8
0
100
AcDbBlockEnd
  0
BLOCK
  5
136
330
135
100
AcDbEntity
  8
0
100
AcDbBlockBegin
  2
*D9
 70
     1
 10
0.0
 20
0.0
 30
0.0
  3
*D9
  1
*D9
  0
LINE
  5
138
330
135
100
AcDbEntity
  8
0
 62
     0
370
    -2
100
AcDbLine
 10
845.9363569801498
 20
563.5588189269007
 30
0.0
 11
898.0149974396513
 21
621.5589715809238
 31
0.0
  0
MTEXT
  5
139
330
135
100
AcDbEntity
  8
0
 62
     0
100
AcDbMText
 10
866.2175644586737
 20
614.5286595629383
 30
0.0
 40
25.0
 41
0.0
 71
     5
 72
     1
  1
R5
 11
0.6681031489352344
 21
0.7440686677873382
 31
0.0
 73
     1
 44
1.0
  0
LINE
  5
13A
330
135
100
AcDbEntity
  8
0
 62
     0
370
    -2
100
AcDbLine
 10
825.8932625120927
 20
541.2367588932806
 30
0.0
 11
829.2337782567689
 21
544.9571022322173
 31
0.0
  0
SOLID
  5
13B
330
135
100
AcDbEntity
  8
0
 62
     0
100
AcDbTrace
 10
842.8360708643692
 20
566.3425820474641
 30
0.0
 11
849.0366430959303
 21
560.7750558063373
 31
0.0
 12
829.2337782567689
 22
544.9571022322173
 32
0.0
 13
829.2337782567689
 23
544.9571022322173
 33
0.0
  0
POINT
  5
13C
330
135
100
AcDbEntity
  8
Defpoints
 62
     0
100
AcDbPoint
 10
829.2337782567689
 20
544.9571022322173
 30
0.0
  0
POINT
  5
13D
330
135
100
AcDbEntity
  8
Defpoints
 62
     0
100
AcDbPoint
 10
825.8932625120927
 20
541.2367588932806
 30
0.0
  0
ENDBLK
  5
137
330
135
100
AcDbEntity
  8
0
100
AcDbBlockEnd
  0
BLOCK
  5
15D
330
15C
100
AcDbEntity
  8
0
100
AcDbBlockBegin
  2
*D11
 70
     1
 10
0.0
 20
0.0
 30
0.0
  3
*D11
  1
*D11
  0
LINE
  5
15F
330
15C
100
AcDbEntity
  8
0
 62
     0
370
    -2
100
AcDbLine
 10
109.8932625120929
 20
446.9867588932807
 30
0.0
 11
109.8932625120929
 21
393.8316179602505
 31
0.0
  0
LINE
  5
160
330
15C
100
AcDbEntity
  8
0
 62
     0
370
    -2
100
AcDbLine
 10
801.8932625120927
 20
446.9867588932806
 30
0.0
 11
801.8932625120927
 21
393.8316179602505
 31
0.0
  0
LINE
  5
161
330
15C
100
AcDbEntity
  8
0
 62
     0
370
    -2
100
AcDbLine
 10
134.8932625120929
 20
406.3316179602505
 30
0.0
 11
776.8932625120927
 21
406.3316179602505
 31
0.0
  0
SOLID
  5
162
330
15C
100
AcDbEntity
  8
0
 62
     0
100
AcDbTrace
 10
134.8932625120929
 20
410.4982846269172
 30
0.0
 11
134.8932625120929
 21
402.1649512935838
 31
0.0
 12
109.8932625120929
 22
406.3316179602505
 32
0.0
 13
109.8932625120929
 23
406.3316179602505
 33
0.0
  0
SOLID
  5
163
330
15C
100
AcDbEntity
  8
0
 62
     0
100
AcDbTrace
 10
776.8932625120927
 20
402.1649512935838
 30
0.0
 11
776.8932625120927
 21
410.4982846269172
 31
0.0
 12
801.8932625120927
 22
406.3316179602505
 32
0.0
 13
801.8932625120927
 23
406.3316179602505
 33
0.0
  0
MTEXT
  5
164
330
15C
100
AcDbEntity
  8
0
 62
     0
100
AcDbMText
 10
455.8932625120928
 20
425.3441179602505
 30
0.0
 40
25.0
 41
0.0
 71
     5
 72
     1
  1
692
 73
     1
 44
1.0
  0
POINT
  5
165
330
15C
100
AcDbEntity
  8
Defpoints
 62
     0
100
AcDbPoint
 10
109.8932625120929
 20
453.2367588932807
 30
0.0
  0
POINT
  5
166
330
15C
100
AcDbEntity
  8
Defpoints
 62
     0
100
AcDbPoint
 10
801.8932625120927
 20
453.2367588932806
 30
0.0
  0
POINT
  5
167
330
15C
100
AcDbEntity
  8
Defpoints
 62
     0
100
AcDbPoint
 10
801.8932625120927
 20
406.3316179602505
 30
0.0
  0
ENDBLK
  5
15E
330
15C
100
AcDbEntity
  8
0
100
AcDbBlockEnd
  0
BLOCK
  5
16C
330
16B
100
AcDbEntity
  8
0
100
AcDbBlockBegin
  2
*D12
 70
     1
 10
0.0
 20
0.0
 30
0.0
  3
*D12
  1
*D12
  0
LINE
  5
16E
330
16B
100
AcDbEntity
  8
0
 62
     0
370
    -2
100
AcDbLine
 10
776.6432625120927
 20
472.2367588932806
 30
0.0
 11
664.905736902158
 21
472.2367588932806
 31
0.0
  0
LINE
  5
16F
330
16B
100
AcDbEntity
  8
0
 62
     0
370
    -2
100
AcDbLine
 10
776.6432625120927
 20
65.23675889328058
 30
0.0
 11
664.905736902158
 21
65.23675889328058
 31
0.0
  0
LINE
  5
170
330
16B
100
AcDbEntity
  8
0
 62
     0
370
    -2
100
AcDbLine
 10
677.405736902158
 20
447.2367588932806
 30
0.0
 11
677.405736902158
 21
90.23675889328058
 31
0.0
  0
SOLID
  5
171
330
16B
100
AcDbEntity
  8
0
 62
     0
100
AcDbTrace
 10
681.5724035688246
 20
447.2367588932806
 30
0.0
 11
673.2390702354913
 21
447.2367588932806
 31
0.0
 12
677.405736902158
 22
472.2367588932806
 32
0.0
 13
677.405736902158
 23
472.2367588932806
 33
0.0
  0
SOLID
  5
172
330
16B
100
AcDbEntity
  8
0
 62
     0
100
AcDbTrace
 10
673.2390702354913
 20
90.23675889328058
 30
0.0
 11
681.5724035688246
 21
90.23675889328058
 31
0.0
 12
677.405736902158
 22
65.23675889328058
 32
0.0
 13
677.405736902158
 23
65.23675889328058
 33
0.0
  0
MTEXT
  5
173
330
16B
100
AcDbEntity
  8
0
 62
     0
100
AcDbMText
 10
658.3932369021579
 20
268.7367588932806
 30
0.0
 40
25.0
 41
0.0
 71
     5
 72
     1
  1
407
 11
0.0
 21
1.0
 31
0.0
 73
     1
 44
1.0
  0
POINT
  5
174
330
16B
100
AcDbEntity
  8
Defpoints
 62
     0
100
AcDbPoint
 10
782.8932625120927
 20
472.2367588932806
 30
0.0
  0
POINT
  5
175
330
16B
100
AcDbEntity
  8
Defpoints
 62
     0
100
AcDbPoint
 10
782.8932625120927
 20
65.23675889328058
 30
0.0
  0
POINT
  5
176
330
16B
100
AcDbEntity
  8
Defpoints
 62
     0
100
AcDbPoint
 10
677.405736902158
 20
65.23675889328058
 30
0.0
  0
ENDBLK
  5
16D
330
16B
100
AcDbEntity
  8
0
100
AcDbBlockEnd
  0
BLOCK
  5
17B
330
17A
100
AcDbEntity
  8
0
100
AcDbBlockBegin
  2
*D13
 70
     1
 10
0.0
 20
0.0
 30
0.0
  3
*D13
  1
*D13
  0
LINE
  5
17D
330
17A
100
AcDbEntity
  8
0
 62
     0
370
    -2
100
AcDbLine
 10
753.1528338075053
 20
116.6637060278375
 30
0.0
 11
687.4366251528799
 21
188.3162045541397
 31
0.0
  0
MTEXT
  5
17E
330
17A
100
AcDbEntity
  8
0
 62
     0
100
AcDbMText
 10
725.8575016072022
 20
174.5530630166234
 30
0.0
 40
25.0
 41
0.0
 71
     5
 72
     1
  1
R19
 11
0.6759188341951697
 21
-0.7369760712399301
 31
0.0
 73
     1
 44
1.0
  0
LINE
  5
17F
330
17A
100
AcDbEntity
  8
0
 62
     0
370
    -2
100
AcDbLine
 10
782.8932625120927
 20
84.23675889328058
 30
0.0
 11
770.0508046623845
 21
98.23930424683927
 31
0.0
  0
SOLID
  5
180
330
17A
100
AcDbEntity
  8
0
 62
     0
100
AcDbTrace
 10
750.0821001773389
 20
113.8473775520243
 30
0.0
 11
756.2235674376717
 21
119.4800345036507
 31
0.0
 12
770.0508046623845
 22
98.23930424683927
 32
0.0
 13
770.0508046623845
 23
98.23930424683927
 33
0.0
  0
ARC
  5
181
330
17A
100
AcDbEntity
  8
0
 62
     0
370
    -2
100
AcDbCircle
 10
782.8932625120927
 20
84.23675889328058
 30
0.0
 40
19.00000000000002
100
AcDbArc
 50
18.93332217514551
 51
170.9353386567349
  0
POINT
  5
182
330
17A
100
AcDbEntity
  8
Defpoints
 62
     0
100
AcDbPoint
 10
770.0508046623845
 20
98.23930424683927
 30
0.0
  0
POINT
  5
183
330
17A
100
AcDbEntity
  8
Defpoints
 62
     0
100
AcDbPoint
 10
782.8932625120927
 20
84.23675889328058
 30
0.0
  0
ENDBLK
  5
17C
330
17A
100
AcDbEntity
  8
0
100
AcDbBlockEnd
  0
BLOCK
  5
188
330
187
100
AcDbEntity
  8
0
100
AcDbBlockBegin
  2
*D14
 70
     1
 10
0.0
 20
0.0
 30
0.0
  3
*D14
  1
*D14
  0
LINE
  5
18A
330
187
100
AcDbEntity
  8
0
 62
     0
370
    -2
100
AcDbLine
 10
389.4880225242832
 20
499.6526000072912
 30
0.0
 11
297.885018057135
 21
478.4490579071698
 31
0.0
  0
LINE
  5
18B
330
187
100
AcDbEntity
  8
0
 62
     0
370
    -2
100
AcDbLine
 10
472.2985024999024
 20
518.8209177792701
 30
0.0
 11
496.6545260221433
 21
524.4586583004403
 31
0.0
  0
MTEXT
  5
18C
330
187
100
AcDbEntity
  8
0
 62
     0
100
AcDbMText
 10
327.1195275338575
 20
505.19312300871
 30
0.0
 40
25.0
 41
0.0
 71
     5
 72
     1
  1
%%c35
 11
0.9742409408896383
 21
0.2255096208468104
 31
0.0
 73
     1
 44
1.0
  0
LINE
  5
18D
330
187
100
AcDbEntity
  8
0
 62
     0
370
    -2
100
AcDbLine
 10
447.9424789776614
 20
513.1831772580998
 30
0.0
 11
413.8440460465241
 21
505.2903405284615
 31
0.0
  0
SOLID
  5
18E
330
187
100
AcDbEntity
  8
0
 62
     0
100
AcDbTrace
 10
471.3588790797073
 20
522.880255032977
 30
0.0
 11
473.2381259200974
 21
514.7615805255632
 31
0.0
 12
447.9424789776614
 22
513.1831772580998
 32
0.0
 13
447.9424789776614
 23
513.1831772580998
 33
0.0
  0
SOLID
  5
18F
330
187
100
AcDbEntity
  8
0
 62
     0
100
AcDbTrace
 10
390.4276459444782
 20
495.5932627535844
 30
0.0
 11
388.5483991040881
 21
503.711937260998
 31
0.0
 12
413.8440460465241
 22
505.2903405284615
 32
0.0
 13
413.8440460465241
 23
505.2903405284615
 33
0.0
  0
POINT
  5
190
330
187
100
AcDbEntity
  8
Defpoints
 62
     0
100
AcDbPoint
 10
413.8440460465241
 20
505.2903405284615
 30
0.0
  0
POINT
  5
191
330
187
100
AcDbEntity
  8
Defpoints
 62
     0
100
AcDbPoint
 10
447.9424789776614
 20
513.1831772580998
 30
0.0
  0
ENDBLK
  5
189
330
187
100
AcDbEntity
  8
0
100
AcDbBlockEnd
  0
BLOCK
  5
196
330
195
100
AcDbEntity
  8
0
100
AcDbBlockBegin
  2
*D15
 70
     1
 10
0.0
 20
0.0
 30
0.0
  3
*D15
  1
*D15
  0
LINE
  5
198
330
195
100
AcDbEntity
  8
0
 62
     0
370
    -2
100
AcDbLine
 10
437.1432625120928
 20
509.2367588932806
 30
0.0
 11
543.1045387796283
 21
509.2367588932806
 31
0.0
  0
LINE
  5
199
330
195
100
AcDbEntity
  8
0
 62
     0
370
    -2
100
AcDbLine
 10
437.1432625120928
 20
472.2367588932806
 30
0.0
 11
543.1045387796283
 21
472.2367588932806
 31
0.0
  0
LINE
  5
19A
330
195
100
AcDbEntity
  8
0
 62
     0
370
    -2
100
AcDbLine
 10
530.6045387796283
 20
509.2367588932806
 30
0.0
 11
530.6045387796283
 21
472.2367588932806
 31
0.0
  0
LINE
  5
19B
330
195
100
AcDbEntity
  8
0
 62
     0
370
    -2
100
AcDbLine
 10
530.6045387796283
 20
534.2367588932806
 30
0.0
 11
530.6045387796283
 21
559.2367588932806
 31
0.0
  0
LINE
  5
19C
330
195
100
AcDbEntity
  8
0
 62
     0
370
    -2
100
AcDbLine
 10
530.6045387796283
 20
447.2367588932806
 30
0.0
 11
530.6045387796283
 21
422.2367588932806
 31
0.0
  0
SOLID
  5
19D
330
195
100
AcDbEntity
  8
0
 62
     0
100
AcDbTrace
 10
526.4378721129617
 20
534.2367588932806
 30
0.0
 11
534.771205446295
 21
534.2367588932806
 31
0.0
 12
530.6045387796283
 22
509.2367588932806
 32
0.0
 13
530.6045387796283
 23
509.2367588932806
 33
0.0
  0
SOLID
  5
19E
330
195
100
AcDbEntity
  8
0
 62
     0
100
AcDbTrace
 10
534.771205446295
 20
447.2367588932806
 30
0.0
 11
526.4378721129617
 21
447.2367588932806
 31
0.0
 12
530.6045387796283
 22
472.2367588932806
 32
0.0
 13
530.6045387796283
 23
472.2367588932806
 33
0.0
  0
MTEXT
  5
19F
330
195
100
AcDbEntity
  8
0
 62
     0
100
AcDbMText
 10
511.5920387796284
 20
493.2129482468118
 30
0.0
 40
25.0
 41
0.0
 71
     5
 72
     1
  1
37
 11
0.0
 21
1.0
 31
0.0
 73
     1
 44
1.0
  0
POINT
  5
1A0
330
195
100
AcDbEntity
  8
Defpoints
 62
     0
100
AcDbPoint
 10
430.8932625120928
 20
509.2367588932806
 30
0.0
  0
POINT
  5
1B0
330
195
100
AcDbEntity
  8
Defpoints
 62
     0
100
AcDbPoint
 10
430.8932625120928
 20
472.2367588932806
 30
0.0
  0
POINT
  5
1B1
330
195
100
AcDbEntity
  8
Defpoints
 62
     0
100
AcDbPoint
 10
530.6045387796283
 20
472.2367588932806
 30
0.0
  0
ENDBLK
  5
197
330
195
100
AcDbEntity
  8
0
100
AcDbBlockEnd
  0
BLOCK
  5
1A5
330
1A4
100
AcDbEntity
  8
0
100
AcDbBlockBegin
  2
*D16
 70
     1
 10
0.0
 20
0.0
 30
0.0
  3
*D16
  1
*D16
  0
LINE
  5
1A7
330
1A4
100
AcDbEntity
  8
0
 62
     0
370
    -2
100
AcDbLine
 10
430.8932625120927
 20
515.4867588932807
 30
0.0
 11
430.8932625120927
 21
592.9998793386249
 31
0.0
  0
LINE
  5
1A8
330
1A4
100
AcDbEntity
  8
0
 62
     0
370
    -2
100
AcDbLine
 10
80.89326251209286
 20
547.4867588932806
 30
0.0
 11
80.89326251209286
 21
592.9998793386249
 31
0.0
  0
LINE
  5
1A9
330
1A4
100
AcDbEntity
  8
0
 62
     0
370
    -2
100
AcDbLine
 10
405.8932625120927
 20
580.4998793386249
 30
0.0
 11
105.8932625120929
 21
580.4998793386249
 31
0.0
  0
SOLID
  5
1AA
330
1A4
100
AcDbEntity
  8
0
 62
     0
100
AcDbTrace
 10
405.8932625120927
 20
576.3332126719582
 30
0.0
 11
405.8932625120927
 21
584.6665460052915
 31
0.0
 12
430.8932625120927
 22
580.4998793386249
 32
0.0
 13
430.8932625120927
 23
580.4998793386249
 33
0.0
  0
SOLID
  5
1AB
330
1A4
100
AcDbEntity
  8
0
 62
     0
100
AcDbTrace
 10
105.8932625120929
 20
584.6665460052915
 30
0.0
 11
105.8932625120929
 21
576.3332126719582
 31
0.0
 12
80.89326251209286
 22
580.4998793386249
 32
0.0
 13
80.89326251209286
 23
580.4998793386249
 33
0.0
  0
MTEXT
  5
1AC
330
1A4
100
AcDbEntity
  8
0
 62
     0
100
AcDbMText
 10
227.785582304586
 20
599.5123793386249
 30
0.0
 40
25.0
 41
0.0
 71
     5
 72
     1
  1
350
 73
     1
 44
1.0
  0
POINT
  5
1AD
330
1A4
100
AcDbEntity
  8
Defpoints
 62
     0
100
AcDbPoint
 10
430.8932625120927
 20
509.2367588932806
 30
0.0
  0
POINT
  5
1AE
330
1A4
100
AcDbEntity
  8
Defpoints
 62
     0
100
AcDbPoint
 10
80.89326251209286
 20
541.2367588932806
 30
0.0
  0
POINT
  5
1AF
330
1A4
100
AcDbEntity
  8
Defpoints
 62
     0
100
AcDbPoint
 10
80.89326251209286
 20
580.4998793386249
 30
0.0
  0
ENDBLK
  5
1A6
330
1A4
100
AcDbEntity
  8
0
100
AcDbBlockEnd
  0
BLOCK
  5
249
330
248
100
AcDbEntity
  8
0
100
AcDbBlockBegin
  2
*D19
 70
     1
 10
0.0
 20
0.0
 30
0.0
  3
*D19
  1
*D19
  0
LINE
  5
24B
330
248
100
AcDbEntity
  8
0
 62
     0
370
    -2
100
AcDbLine
 10
145.0115054226826
 20
95.58265081046707
 30
0.0
 11
218.6046800070874
 21
158.8882609851531
 31
0.0
  0
MTEXT
  5
24C
330
248
100
AcDbEntity
  8
0
 62
     0
100
AcDbMText
 10
178.885782839622
 20
149.80058964975
 30
0.0
 40
25.0
 41
0.0
 71
     5
 72
     1
  1
R20
 11
0.7581063567798594
 21
0.6521309314930314
 31
0.0
 73
     1
 44
1.0
  0
LINE
  5
24D
330
248
100
AcDbEntity
  8
0
 62
     0
370
    -2
100
AcDbLine
 10
110.896719367589
 20
66.23675889328067
 30
0.0
 11
126.0588465031861
 21
79.27937752314129
 31
0.0
  0
SOLID
  5
24E
330
248
100
AcDbEntity
  8
0
 62
     0
100
AcDbTrace
 10
142.2942932081283
 20
98.74142729704982
 30
0.0
 11
147.7287176372369
 21
92.42387432388432
 31
0.0
 12
126.0588465031861
 22
79.27937752314129
 32
0.0
 13
126.0588465031861
 23
79.27937752314129
 33
0.0
  0
ARC
  5
24F
330
248
100
AcDbEntity
  8
0
 62
     0
370
    -2
100
AcDbCircle
 10
110.896719367589
 20
66.23675889328067
 30
0.0
 40
20.0
100
AcDbArc
 50
287.9785986903256
 51
77.12237204246692
  0
POINT
  5
250
330
248
100
AcDbEntity
  8
Defpoints
 62
     0
100
AcDbPoint
 10
126.0588465031861
 20
79.27937752314129
 30
0.0
  0
POINT
  5
251
330
248
100
AcDbEntity
  8
Defpoints
 62
     0
100
AcDbPoint
 10
110.896719367589
 20
66.23675889328067
 30
0.0
  0
ENDBLK
  5
24A
330
248
100
AcDbEntity
  8
0
100
AcDbBlockEnd
  0
ENDSEC
  0
SECTION
  2
ENTITIES
  0
DIMENSION
  5
93
330
1F
100
AcDbEntity
  8
0
100
AcDbDimension
  2
*D2
 10
820.896719367589
 20
616.4440198091652
 30
0.0
 11
430.896719367589
 21
616.4440198091652
 31
0.0
 70
   160
 71
     5
 42
730.0
  3
ISO-25
100
AcDbAlignedDimension
 13
90.89671936758893
 23
516.2367588932805
 33
0.0
 14
820.896719367589
 24
516.2367588932805
 34
0.0
100
AcDbRotatedDimension
1001
ACAD
1000
DSTYLE
1002
{
1070
    40
1040
10.0
1002
}
  0
DIMENSION
  5
A2
330
1F
100
AcDbEntity
  8
0
100
AcDbDimension
  2
*D3
 10
-4.574859961709379
 20
46.23675889328067
 30
0.0
 11
-23.58735996170935
 21
291.2367588932806
 31
0.0
 70
    32
 71
     5
 42
489.9999999999998
  3
ISO-25
100
AcDbAlignedDimension
 13
110.8967193675889
 23
536.2367588932805
 33
0.0
 14
110.896719367589
 24
46.23675889328067
 34
0.0
 50
90.0
100
AcDbRotatedDimension
1001
ACAD
1000
DSTYLE
1002
{
1070
    40
1040
10.0
1002
}
  0
MTEXT
  5
E6
102
{ACAD_REACTORS
330
E7
102
}
330
1F
100
AcDbEntity
  8
0
100
AcDbMText
 10
599.8484284502382
 20
666.75391742075
 30
0.0
 40
15.0
 41
251.3868087724856
 71
     7
 72
     1
  1
{INSET CUTOUT}
 73
     1
 44
1.0
1001
ACAD
1000
ACAD_MTEXT_DEFINED_HEIGHT_BEGIN
1070
    46
1040
15.0
1000
ACAD_MTEXT_DEFINED_HEIGHT_END
  0
LEADER
  5
E7
330
1F
100
AcDbEntity
  8
0
100
AcDbLeader
  3
ISO-25
 73
     0
 74
     0
 75
     1
 40
15.51
 41
152.355
 76
     4
 10
431.506719367589
 20
536.2367588932805
 30
0.0
 10
545.2917206007171
 20
650.2138342818781
 30
0.0
 10
586.2284284502382
 20
668.50391742075
 30
0.0
 10
592.2284284502382
 20
668.50391742075
 30
0.0
340
E6
213
0.0
223
1.75
233
0.0
1001
ACAD
1000
DSTYLE
1002
{
1070
    40
1040
5.0
1070
    77
1070
     0
1070
   143
1040
0.0393700787401575
1070
    41
1040
6.0
1070
    44
1040
1.0
1070
    42
1040
1.0
1070
   147
1040
1.524
1070
    73
1070
     1
1070
    74
1070
     1
1070
   140
1040
3.5
1070
   284
1070
     0
1070
    78
1070
     0
1002
}
  0
MTEXT
  5
112
102
{ACAD_REACTORS
330
113
102
}
330
1F
100
AcDbEntity
  8
0
100
AcDbMText
 10
1003.881363331402
 20
397.2418898762838
 30
0.0
 40
15.0
 41
273.1287862191817
 71
     7
 72
     1
  1
{FLUSH MOUNT REBATE 1.2MM USE ACTUAL SINK FOR EXACT DIMENSIONS}
 73
     1
 44
1.0
1001
ACAD
1000
ACAD_MTEXT_DEFINED_HEIGHT_BEGIN
1070
    46
1040
66.105
1000
ACAD_MTEXT_DEFINED_HEIGHT_END
  0
LEADER
  5
113
330
1F
100
AcDbEntity
  8
0
100
AcDbLeader
  3
ISO-25
 73
     0
 74
     0
 75
     1
 40
66.02
 41
255.4649999999999
 76
     4
 10
830.8932625120927
 20
291.2367588932806
 30
0.0
 10
964.0004130292459
 20
386.5697115015354
 30
0.0
 10
990.261363331402
 20
398.9918898762838
 30
0.0
 10
996.261363331402
 20
398.9918898762838
 30
0.0
340
112
213
0.0
223
1.75
233
0.0
1001
ACAD
1000
DSTYLE
1002
{
1070
    40
1040
5.0
1070
    77
1070
     0
1070
   143
1040
0.0393700787401575
1070
    41
1040
6.0
1070
    44
1040
1.0
1070
    42
1040
1.0
1070
   147
1040
1.524
1070
    73
1070
     1
1070
    74
1070
     1
1070
   140
1040
3.5
1070
   284
1070
     0
1070
    78
1070
     0
1002
}
  0
DIMENSION
  5
114
330
1F
100
AcDbEntity
  8
0
100
AcDbDimension
  2
*D7
 10
942.1902951545349
 20
36.23675889328069
 30
0.0
 11
923.1777951545348
 21
291.2367588932806
 31
0.0
 70
    32
 71
     5
 42
509.9999999999999
  3
ISO-25
100
AcDbAlignedDimension
 13
825.8932625120927
 23
546.2367588932806
 33
0.0
 14
825.8932625120927
 24
36.23675889328069
 34
0.0
 50
90.0
100
AcDbRotatedDimension
1001
ACAD
1000
DSTYLE
1002
{
1070
    40
1040
10.0
1002
}
  0
DIMENSION
  5
123
330
1F
100
AcDbEntity
  8
0
100
AcDbDimension
  2
*D8
 10
830.8932625120927
 20
-34.88912814822913
 30
0.0
 11
434.204298837681
 21
-34.88912814822913
 31
0.0
 70
   160
 71
     5
 42
749.9999999999999
  3
ISO-25
100
AcDbAlignedDimension
 13
80.89326251209286
 23
41.23675889328067
 33
0.0
 14
830.8932625120927
 24
41.23675889328069
 34
0.0
100
AcDbRotatedDimension
1001
ACAD
1000
DSTYLE
1002
{
1070
    40
1040
10.0
1002
}
  0
DIMENSION
  5
132
330
1F
100
AcDbEntity
  8
0
100
AcDbDimension
  2
*D9
 10
825.8932625120927
 20
541.2367588932806
 30
0.0
 11
880.326966571591
 21
601.8597536012539
 31
0.0
 70
   164
  1
<>
 71
     5
 42
4.999999999999995
  3
ISO-25
100
AcDbRadialDimension
 15
829.2337782567689
 25
544.9571022322173
 35
0.0
 40
0.0
1001
ACAD_DSTYLE_DIMRADIAL_EXTENSION
1070
   387
1070
     1
1070
   388
1040
0.0
1070
   390
1040
1.570796326794897
1001
ACAD
1000
DSTYLE
1002
{
1070
    40
1040
10.0
1002
}
  0
LINE
  5
13F
330
1F
100
AcDbEntity
  8
0
100
AcDbLine
 10
109.8932625120929
 20
84.23675889328068
 30
0.0
 11
109.8932625120929
 21
453.2367588932807
 31
0.0
  0
LINE
  5
140
330
1F
100
AcDbEntity
  8
0
100
AcDbLine
 10
128.8932625120929
 20
472.2367588932807
 30
0.0
 11
782.8932625120927
 21
472.2367588932806
 31
0.0
  0
LINE
  5
141
330
1F
100
AcDbEntity
  8
0
100
AcDbLine
 10
801.8932625120927
 20
453.2367588932806
 30
0.0
 11
801.8932625120927
 21
84.23675889328058
 31
0.0
  0
ARC
  5
142
330
1F
100
AcDbEntity
  8
0
100
AcDbCircle
 10
782.8932625120927
 20
84.23675889328058
 30
0.0
 40
19.0
100
AcDbArc
 50
270.0
 51
0.0
  0
LINE
  5
143
330
1F
100
AcDbEntity
  8
0
100
AcDbLine
 10
782.8932625120927
 20
65.23675889328058
 30
0.0
 11
128.8932625120929
 21
65.23675889328068
 31
0.0
  0
ARC
  5
144
330
1F
100
AcDbEntity
  8
0
100
AcDbCircle
 10
128.8932625120929
 20
84.23675889328068
 30
0.0
 40
19.0
100
AcDbArc
 50
180.0
 51
270.0
  0
ARC
  5
154
330
1F
100
AcDbEntity
  8
0
100
AcDbCircle
 10
128.8932625120929
 20
453.2367588932807
 30
0.0
 40
19.00000000000001
100
AcDbArc
 50
90.0
 51
180.0
  0
ARC
  5
155
330
1F
100
AcDbEntity
  8
0
100
AcDbCircle
 10
782.8932625120927
 20
453.2367588932806
 30
0.0
 40
19.0
100
AcDbArc
 50
0.0
 51
90.0
  0
CIRCLE
  5
158
330
1F
100
AcDbEntity
  8
0
100
AcDbCircle
 10
430.8932625120928
 20
509.2367588932806
 30
0.0
 40
17.5
  0
DIMENSION
  5
159
330
1F
100
AcDbEntity
  8
0
100
AcDbDimension
  2
*D11
 10
801.8932625120927
 20
406.3316179602505
 30
0.0
 11
455.8932625120928
 21
425.3441179602505
 31
0.0
 70
    32
 71
     5
 42
691.9999999999999
  3
ISO-25
100
AcDbAlignedDimension
 13
109.8932625120929
 23
453.2367588932807
 33
0.0
 14
801.8932625120927
 24
453.2367588932806
 34
0.0
100
AcDbRotatedDimension
1001
ACAD
1000
DSTYLE
1002
{
1070
    40
1040
10.0
1002
}
  0
DIMENSION
  5
168
330
1F
100
AcDbEntity
  8
0
100
AcDbDimension
  2
*D12
 10
677.405736902158
 20
65.23675889328058
 30
0.0
 11
658.3932369021579
 21
268.7367588932806
 31
0.0
 70
    32
 71
     5
 42
407.0
  3
ISO-25
100
AcDbAlignedDimension
 13
782.8932625120927
 23
472.2367588932806
 33
0.0
 14
782.8932625120927
 24
65.23675889328058
 34
0.0
 50
90.0
100
AcDbRotatedDimension
1001
ACAD
1000
DSTYLE
1002
{
1070
    40
1040
10.0
1002
}
  0
DIMENSION
  5
177
330
1F
100
AcDbEntity
  8
0
100
AcDbDimension
  2
*D13
 10
782.8932625120927
 20
84.23675889328058
 30
0.0
 11
711.8457440527529
 21
161.7021561814877
 31
0.0
 70
   164
  1
<>
 71
     5
 42
19.00000000000002
  3
ISO-25
100
AcDbRadialDimension
 15
770.0508046623845
 25
98.23930424683927
 35
0.0
 40
0.0
1001
ACAD_DSTYLE_DIMRADIAL_EXTENSION
1070
   387
1070
     1
1070
   388
1040
4.71238898038469
1070
   390
1040
0.0
1001
ACAD
1000
DSTYLE
1002
{
1070
    40
1040
10.0
1002
}
  0
DIMENSION
  5
184
330
1F
100
AcDbEntity
  8
0
100
AcDbDimension
  2
*D14
 10
447.9424789776614
 20
513.1831772580998
 30
0.0
 11
331.5085085295886
 21
486.2319586966454
 31
0.0
 70
   163
  1
<>
 71
     5
 42
34.99999999999998
  3
ISO-25
100
AcDbDiametricDimension
 15
413.8440460465241
 25
505.2903405284615
 35
0.0
 40
0.0
1001
ACAD_DSTYLE_DIMRADIAL_EXTENSION
1070
   387
1070
     1
1070
   388
1040
0.0
1070
   390
1040
6.283185307179586
1001
ACAD
1000
DSTYLE
1002
{
1070
    40
1040
10.0
1002
}
  0
DIMENSION
  5
192
330
1F
100
AcDbEntity
  8
0
100
AcDbDimension
  2
*D15
 10
530.6045387796283
 20
472.2367588932806
 30
0.0
 11
530.6045387796283
 21
493.2129482468118
 31
0.0
 70
   160
 71
     5
 42
36.99999999999994
  3
ISO-25
100
AcDbAlignedDimension
 13
430.8932625120928
 23
509.2367588932806
 33
0.0
 14
430.8932625120928
 24
472.2367588932806
 34
0.0
 50
90.0
100
AcDbRotatedDimension
1001
ACAD
1000
DSTYLE
1002
{
1070
    40
1040
10.0
1002
}
  0
DIMENSION
  5
1A1
330
1F
100
AcDbEntity
  8
0
100
AcDbDimension
  2
*D16
 10
80.89326251209286
 20
580.4998793386249
 30
0.0
 11
227.785582304586
 21
580.4998793386249
 31
0.0
 70
   160
 71
     5
 42
349.9999999999999
  3
ISO-25
100
AcDbAlignedDimension
 13
430.8932625120927
 23
509.2367588932806
 33
0.0
 14
80.89326251209286
 24
541.2367588932806
 34
0.0
100
AcDbRotatedDimension
1001
ACAD
1000
DSTYLE
1002
{
1070
    40
1040
10.0
1002
}
  0
MTEXT
  5
1D9
102
{ACAD_REACTORS
330
1DA
102
}
330
1F
100
AcDbEntity
  8
0
100
AcDbMText
 10
284.4301605769556
 20
207.471787356521
 30
0.0
 40
15.0
 41
251.3868087724856
 71
     7
 72
     1
  1
{UNDERMOUNT CUTOUT REFER TO BENCH TOP SUPPLIER FOR SUITABILITY OF UNDERMOUNT INSTALLATION AND TAP HOLE POSITIONING.}
 73
     1
 44
1.0
1001
ACAD
1000
ACAD_MTEXT_DEFINED_HEIGHT_BEGIN
1070
    46
1040
167.805
1000
ACAD_MTEXT_DEFINED_HEIGHT_END
  0
LEADER
  5
1DA
330
1F
100
AcDbEntity
  8
0
100
AcDbLeader
  3
ISO-25
 73
     0
 74
     0
 40
167.04
 41
242.64
 76
     3
 10
109.8932625120929
 20
268.7367588932807
 30
0.0
 10
243.000413029246
 20
364.0697115015354
 30
0.0
 10
272.6540121788443
 20
366.1530481634283
 30
0.0
340
1D9
213
0.0
223
1.75
233
0.0
1001
ACAD
1000
DSTYLE
1002
{
1070
    40
1040
5.0
1070
    77
1070
     0
1070
   143
1040
0.0393700787401575
1070
    41
1040
6.0
1070
    44
1040
1.0
1070
    42
1040
1.0
1070
   147
1040
1.524
1070
    73
1070
     1
1070
    74
1070
     1
1070
   140
1040
3.5
1070
   284
1070
     0
1070
    78
1070
     0
1002
}
  0
MTEXT
  5
1FC
102
{ACAD_XDICTIONARY
360
2AD
102
}
330
1F
100
AcDbEntity
  8
0
100
AcDbMText
 10
138.8686942684824
 20
-64.92330199151115
 30
0.0
 40
2.5
 41
896.26904898814
 71
     1
 72
     5
  3
\fSymbol|b0|i0|c0|p34;\c8210719;\H6x;·  \fCalibri|b0|i0|c0|p0;    Please take care when installing this sink as an under-mount\P\fSymbol|b0|i0|c0|p34;·  \fCalibri|b0|i0|c0|p0;    Please assess bench-top material before proceeding with under-mount in
  1
stallation\P\fSymbol|b0|i0|c0|p34;·  \fCalibri|b0|i0|c0|p0;    Consult with your kitchen contractor for flushmount installation.}
 73
     1
 44
1.0
1001
ACAD
1000
ACAD_MTEXT_DEFINED_HEIGHT_BEGIN
1070
    46
1040
65.0
1000
ACAD_MTEXT_DEFINED_HEIGHT_END
  0
LINE
  5
231
330
1F
100
AcDbEntity
  8
0
  6
DASHED
100
AcDbLine
 10
80.89326251209286
 20
41.23675889328067
 30
0.0
 11
80.89326251209286
 21
541.2367588932806
 31
0.0
  0
ARC
  5
232
330
1F
100
AcDbEntity
  8
0
  6
DASHED
100
AcDbCircle
 10
85.89326251209286
 20
541.2367588932806
 30
0.0
 40
5.0
100
AcDbArc
 50
90.0
 51
180.0
  0
LINE
  5
233
330
1F
100
AcDbEntity
  8
0
  6
DASHED
100
AcDbLine
 10
85.89326251209286
 20
546.2367588932806
 30
0.0
 11
825.8932625120927
 21
546.2367588932806
 31
0.0
  0
ARC
  5
234
330
1F
100
AcDbEntity
  8
0
  6
DASHED
100
AcDbCircle
 10
825.8932625120927
 20
541.2367588932806
 30
0.0
 40
5.0
100
AcDbArc
 50
0.0
 51
90.0
  0
LINE
  5
235
330
1F
100
AcDbEntity
  8
0
  6
DASHED
100
AcDbLine
 10
830.8932625120927
 20
541.2367588932806
 30
0.0
 11
830.8932625120927
 21
41.23675889328069
 31
0.0
  0
ARC
  5
236
330
1F
100
AcDbEntity
  8
0
  6
DASHED
100
AcDbCircle
 10
825.8932625120927
 20
41.23675889328069
 30
0.0
 40
5.0
100
AcDbArc
 50
270.0
 51
0.0
  0
LINE
  5
237
330
1F
100
AcDbEntity
  8
0
  6
DASHED
100
AcDbLine
 10
825.8932625120927
 20
36.23675889328069
 30
0.0
 11
85.89326251209286
 21
36.23675889328067
 31
0.0
  0
ARC
  5
238
330
1F
100
AcDbEntity
  8
0
  6
DASHED
100
AcDbCircle
 10
85.89326251209286
 20
41.23675889328067
 30
0.0
 40
5.0
100
AcDbArc
 50
180.0
 51
270.0
  0
LINE
  5
239
330
1F
100
AcDbEntity
  8
0
100
AcDbLine
 10
90.89671936758896
 20
66.23675889328067
 30
0.0
 11
90.89671936758893
 21
516.2367588932805
 31
0.0
  0
ARC
  5
23A
330
1F
100
AcDbEntity
  8
0
100
AcDbCircle
 10
110.8967193675889
 20
516.2367588932805
 30
0.0
 40
19.99999999999999
100
AcDbArc
 50
90.0
 51
180.0
  0
LINE
  5
23B
330
1F
100
AcDbEntity
  8
0
100
AcDbLine
 10
110.8967193675889
 20
536.2367588932805
 30
0.0
 11
800.896719367589
 21
536.2367588932805
 31
0.0
  0
ARC
  5
23C
330
1F
100
AcDbEntity
  8
0
100
AcDbCircle
 10
800.896719367589
 20
516.2367588932805
 30
0.0
 40
20.0
100
AcDbArc
 50
0.0
 51
90.0
  0
LINE
  5
23D
330
1F
100
AcDbEntity
  8
0
100
AcDbLine
 10
820.896719367589
 20
516.2367588932805
 30
0.0
 11
820.896719367589
 21
66.2367588932807
 31
0.0
  0
ARC
  5
23E
330
1F
100
AcDbEntity
  8
0
100
AcDbCircle
 10
800.896719367589
 20
66.2367588932807
 30
0.0
 40
20.0
100
AcDbArc
 50
270.0
 51
0.0
  0
LINE
  5
23F
330
1F
100
AcDbEntity
  8
0
100
AcDbLine
 10
800.896719367589
 20
46.23675889328069
 30
0.0
 11
110.896719367589
 21
46.23675889328067
 31
0.0
  0
ARC
  5
240
330
1F
100
AcDbEntity
  8
0
100
AcDbCircle
 10
110.896719367589
 20
66.23675889328067
 30
0.0
 40
20.0
100
AcDbArc
 50
180.0
 51
270.0
  0
DIMENSION
  5
245
330
1F
100
AcDbEntity
  8
0
100
AcDbDimension
  2
*D19
 10
110.896719367589
 20
66.23675889328067
 30
0.0
 11
191.2844221746333
 21
135.387092541473
 31
0.0
 70
   164
  1
<>
 71
     5
 42
20.0
  3
ISO-25
100
AcDbRadialDimension
 15
126.0588465031861
 25
79.27937752314129
 35
0.0
 40
0.0
1001
ACAD_DSTYLE_DIMRADIAL_EXTENSION
1070
   387
1070
     1
1070
   388
1040
3.141592653589793
1070
   390
1040
4.71238898038469
1001
ACAD
1000
DSTYLE
1002
{
1070
    40
1040
10.0
1002
}
  0
ENDSEC
  0
SECTION
  2
OBJECTS
  0
DICTIONARY
  5
C
330
0
100
AcDbDictionary
281
     1
  3
ACAD_GROUP
350
D
  3
ACAD_IMAGE_VARS
350
6A
  3
ACAD_LAYOUT
350
1A
  3
ACAD_MLINESTYLE
350
17
  3
ACAD_PLOTSETTINGS
350
19
  3
ACAD_PLOTSTYLENAME
350
E
  3
ACAD_SCALELIST
350
40
  3
AcDbVariableDictionary
350
3D
  3
APPDATA
350
71
  3
DWGPROPS
350
2AC
  0
DICTIONARY
  5
2AD
330
1FC
100
AcDbDictionary
280
     1
281
     1
  3
ACAD_MTEXT_2008_RT
360
2AE
  0
DICTIONARY
  5
D
102
{ACAD_REACTORS
330
C
102
}
330
C
100
AcDbDictionary
281
     1
  0
RASTERVARIABLES
  5
6A
102
{ACAD_REACTORS
330
C
102
}
330
C
100
AcDbRasterVariables
 90
        0
 70
     1
 71
     1
 72
     1
  0
DICTIONARY
  5
1A
102
{ACAD_REACTORS
330
C
102
}
330
C
100
AcDbDictionary
281
     1
  3
Model
350
22
  3
Sheet1
350
1E
  3
Sheet2
350
26
  0
DICTIONARY
  5
17
102
{ACAD_REACTORS
330
C
102
}
330
C
100
AcDbDictionary
281
     1
  3
Standard
350
18
  0
DICTIONARY
  5
19
102
{ACAD_REACTORS
330
C
102
}
330
C
100
AcDbDictionary
281
     1
  0
ACDBDICTIONARYWDFLT
  5
E
102
{ACAD_REACTORS
330
C
102
}
330
C
100
AcDbDictionary
281
     1
  3
Normal
350
F
100
AcDbDictionaryWithDefault
340
F
  0
DICTIONARY
  5
40
102
{ACAD_REACTORS
330
C
102
}
330
C
100
AcDbDictionary
281
     1
  3
A0
350
41
  3
A1
350
42
  3
A2
350
43
  3
A3
350
44
  3
A4
350
45
  3
A5
350
46
  3
A6
350
47
  3
A7
350
48
  3
A8
350
49
  3
A9
350
4A
  3
B0
350
4B
  3
B1
350
4C
  3
B2
350
4D
  3
B3
350
4E
  3
B4
350
4F
  3
B5
350
50
  3
B6
350
51
  3
B7
350
52
  3
B8
350
53
  3
B9
350
54
  3
C0
350
55
  3
C1
350
56
  3
C2
350
57
  3
C3
350
58
  3
C4
350
59
  3
C5
350
5A
  3
C6
350
5B
  3
C7
350
5C
  3
C8
350
5D
  3
C9
350
5E
  3
D0
350
5F
  3
D1
350
60
  3
D2
350
61
  0
DICTIONARY
  5
3D
102
{ACAD_REACTORS
330
C
102
}
330
C
100
AcDbDictionary
281
     1
  0
DICTIONARY
  5
71
102
{ACAD_REACTORS
330
C
102
}
330
C
100
AcDbDictionary
281
     1
  0
XRECORD
  5
2AC
102
{ACAD_REACTORS
330
C
102
}
330
C
100
AcDbXrecord
280
     1
  1
DWGPROPS COOKIE
  2

  3

  4

  6

  7

  8
jaxton
  9

300
=
301
=
302
=
303
=
304
=
305
=
306
=
307
=
308
=
309
=
 40
0.0
 41
2455022.637359514
 42
2456995.234575185
  1

 90
        0
  0
XRECORD
  5
2AE
102
{ACAD_REACTORS
330
2AD
102
}
330
2AD
100
AcDbXrecord
280
     1
 40
6632516.0
  1
\fSymbol|b0|i0|c0|p34;\c8210719;\H6x;·  \fCalibri|b0|i0|c0|p0;    Please take care when installing this sink as an under-mount\P\fSymbol|b0|i0|c0|p34;·  \fCalibri|b0|i0|c0|p0;    Please assess bench-top material before proceeding with under-mount ins
  1
tallation\P\fSymbol|b0|i0|c0|p34;·  \fCalibri|b0|i0|c0|p0;    Consult with your kitchen contractor for flushmount installation.}
  0
LAYOUT
  5
22
102
{ACAD_REACTORS
330
1A
102
}
330
1A
100
AcDbPlotSettings
  1

  2
none_device
  4
ISO_A3_(420.00_x_297.00_MM)
  6

 40
7.5
 41
20.0
 42
7.5
 43
20.0
 44
420.0
 45
297.0
 46
20.78282828282826
 47
0.0
 48
0.0
 49
0.0
140
0.0
141
0.0
142
1.0
143
1.155642023346303
 70
  1204
 72
     1
 73
     0
 74
     1
  7
monochrome.ctb
 75
     0
147
0.8653198653198654
148
-134.1869158878504
149
0.0
100
AcDbLayout
  1
Model
 70
     1
 71
     0
 10
0.0
 20
0.0
 11
420.0
 21
297.0
 12
0.0
 22
0.0
 32
0.0
 14
-85.73985996170931
 24
-129.1649686581778
 34
0.0
 15
1263.396363331402
 25
682.26391742075
 35
0.0
146
0.0
 13
0.0
 23
0.0
 33
0.0
 16
1.0
 26
0.0
 36
0.0
 17
0.0
 27
1.0
 37
0.0
 76
     0
330
1F
331
29
  0
LAYOUT
  5
1E
102
{ACAD_REACTORS
330
1A
102
}
330
1A
100
AcDbPlotSettings
  1

  2
none_device
  4

  6

 40
0.0
 41
0.0
 42
0.0
 43
0.0
 44
0.0
 45
0.0
 46
0.0
 47
0.0
 48
0.0
 49
0.0
140
0.0
141
0.0
142
1.0
143
1.0
 70
   688
 72
     0
 73
     0
 74
     5
  7

 75
    16
147
1.0
148
0.0
149
0.0
100
AcDbLayout
  1
Sheet1
 70
     1
 71
     1
 10
0.0
 20
0.0
 11
420.0
 21
297.0
 12
0.0
 22
0.0
 32
0.0
 14
1.000000000000000E+20
 24
1.000000000000000E+20
 34
1.000000000000000E+20
 15
-1.000000000000000E+20
 25
-1.000000000000000E+20
 35
-1.000000000000000E+20
146
0.0
 13
0.0
 23
0.0
 33
0.0
 16
1.0
 26
0.0
 36
0.0
 17
0.0
 27
1.0
 37
0.0
 76
     0
330
1B
  0
LAYOUT
  5
26
102
{ACAD_REACTORS
330
1A
102
}
330
1A
100
AcDbPlotSettings
  1

  2
none_device
  4

  6

 40
0.0
 41
0.0
 42
0.0
 43
0.0
 44
0.0
 45
0.0
 46
0.0
 47
0.0
 48
0.0
 49
0.0
140
0.0
141
0.0
142
1.0
143
1.0
 70
   688
 72
     0
 73
     0
 74
     5
  7

 75
    16
147
1.0
148
0.0
149
0.0
100
AcDbLayout
  1
Sheet2
 70
     1
 71
     2
 10
0.0
 20
0.0
 11
0.0
 21
0.0
 12
0.0
 22
0.0
 32
0.0
 14
0.0
 24
0.0
 34
0.0
 15
0.0
 25
0.0
 35
0.0
146
0.0
 13
0.0
 23
0.0
 33
0.0
 16
1.0
 26
0.0
 36
0.0
 17
0.0
 27
1.0
 37
0.0
 76
     0
330
23
  0
MLINESTYLE
  5
18
102
{ACAD_REACTORS
330
17
102
}
330
17
100
AcDbMlineStyle
  2
Standard
 70
     0
  3

 62
   256
 51
90.0
 52
90.0
 71
     2
 49
0.5
 62
   256
  6
BYLAYER
 49
-0.5
 62
   256
  6
BYLAYER
  0
ACDBPLACEHOLDER
  5
F
102
{ACAD_REACTORS
330
E
102
}
330
E
  0
SCALE
  5
41
102
{ACAD_REACTORS
330
40
102
}
330
40
100
AcDbScale
 70
     0
300
1:1
140
1.0
141
1.0
290
     1
  0
SCALE
  5
42
102
{ACAD_REACTORS
330
40
102
}
330
40
100
AcDbScale
 70
     0
300
1:2
140
1.0
141
2.0
290
     0
  0
SCALE
  5
43
102
{ACAD_REACTORS
330
40
102
}
330
40
100
AcDbScale
 70
     0
300
1:4
140
1.0
141
4.0
290
     0
  0
SCALE
  5
44
102
{ACAD_REACTORS
330
40
102
}
330
40
100
AcDbScale
 70
     0
300
1:5
140
1.0
141
5.0
290
     0
  0
SCALE
  5
45
102
{ACAD_REACTORS
330
40
102
}
330
40
100
AcDbScale
 70
     0
300
1:8
140
1.0
141
8.0
290
     0
  0
SCALE
  5
46
102
{ACAD_REACTORS
330
40
102
}
330
40
100
AcDbScale
 70
     0
300
1:10
140
1.0
141
10.0
290
     0
  0
SCALE
  5
47
102
{ACAD_REACTORS
330
40
102
}
330
40
100
AcDbScale
 70
     0
300
1:16
140
1.0
141
16.0
290
     0
  0
SCALE
  5
48
102
{ACAD_REACTORS
330
40
102
}
330
40
100
AcDbScale
 70
     0
300
1:20
140
1.0
141
20.0
290
     0
  0
SCALE
  5
49
102
{ACAD_REACTORS
330
40
102
}
330
40
100
AcDbScale
 70
     0
300
1:30
140
1.0
141
30.0
290
     0
  0
SCALE
  5
4A
102
{ACAD_REACTORS
330
40
102
}
330
40
100
AcDbScale
 70
     0
300
1:40
140
1.0
141
40.0
290
     0
  0
SCALE
  5
4B
102
{ACAD_REACTORS
330
40
102
}
330
40
100
AcDbScale
 70
     0
300
1:50
140
1.0
141
50.0
290
     0
  0
SCALE
  5
4C
102
{ACAD_REACTORS
330
40
102
}
330
40
100
AcDbScale
 70
     0
300
1:100
140
1.0
141
100.0
290
     0
  0
SCALE
  5
4D
102
{ACAD_REACTORS
330
40
102
}
330
40
100
AcDbScale
 70
     0
300
2:1
140
2.0
141
1.0
290
     0
  0
SCALE
  5
4E
102
{ACAD_REACTORS
330
40
102
}
330
40
100
AcDbScale
 70
     0
300
4:1
140
4.0
141
1.0
290
     0
  0
SCALE
  5
4F
102
{ACAD_REACTORS
330
40
102
}
330
40
100
AcDbScale
 70
     0
300
8:1
140
8.0
141
1.0
290
     0
  0
SCALE
  5
50
102
{ACAD_REACTORS
330
40
102
}
330
40
100
AcDbScale
 70
     0
300
10:1
140
10.0
141
1.0
290
     0
  0
SCALE
  5
51
102
{ACAD_REACTORS
330
40
102
}
330
40
100
AcDbScale
 70
     0
300
100:1
140
100.0
141
1.0
290
     0
  0
SCALE
  5
52
102
{ACAD_REACTORS
330
40
102
}
330
40
100
AcDbScale
 70
     0
300
1/128" = 1'-0"
140
0.0078125
141
12.0
290
     0
  0
SCALE
  5
53
102
{ACAD_REACTORS
330
40
102
}
330
40
100
AcDbScale
 70
     0
300
1/64" = 1'-0"
140
0.015625
141
12.0
290
     0
  0
SCALE
  5
54
102
{ACAD_REACTORS
330
40
102
}
330
40
100
AcDbScale
 70
     0
300
1/32" = 1'-0"
140
0.03125
141
12.0
290
     0
  0
SCALE
  5
55
102
{ACAD_REACTORS
330
40
102
}
330
40
100
AcDbScale
 70
     0
300
1/16" = 1'-0"
140
0.0625
141
12.0
290
     0
  0
SCALE
  5
56
102
{ACAD_REACTORS
330
40
102
}
330
40
100
AcDbScale
 70
     0
300
3/32" = 1'-0"
140
0.09375
141
12.0
290
     0
  0
SCALE
  5
57
102
{ACAD_REACTORS
330
40
102
}
330
40
100
AcDbScale
 70
     0
300
1/8" = 1'-0"
140
0.125
141
12.0
290
     0
  0
SCALE
  5
58
102
{ACAD_REACTORS
330
40
102
}
330
40
100
AcDbScale
 70
     0
300
3/16" = 1'-0"
140
0.1875
141
12.0
290
     0
  0
SCALE
  5
59
102
{ACAD_REACTORS
330
40
102
}
330
40
100
AcDbScale
 70
     0
300
1/4" = 1'-0"
140
0.25
141
12.0
290
     0
  0
SCALE
  5
5A
102
{ACAD_REACTORS
330
40
102
}
330
40
100
AcDbScale
 70
     0
300
3/8" = 1'-0"
140
0.375
141
12.0
290
     0
  0
SCALE
  5
5B
102
{ACAD_REACTORS
330
40
102
}
330
40
100
AcDbScale
 70
     0
300
1/2" = 1'-0"
140
0.5
141
12.0
290
     0
  0
SCALE
  5
5C
102
{ACAD_REACTORS
330
40
102
}
330
40
100
AcDbScale
 70
     0
300
3/4" = 1'-0"
140
0.75
141
12.0
290
     0
  0
SCALE
  5
5D
102
{ACAD_REACTORS
330
40
102
}
330
40
100
AcDbScale
 70
     0
300
1" = 1'-0"
140
1.0
141
12.0
290
     0
  0
SCALE
  5
5E
102
{ACAD_REACTORS
330
40
102
}
330
40
100
AcDbScale
 70
     0
300
1-1/2" = 1'-0"
140
1.5
141
12.0
290
     0
  0
SCALE
  5
5F
102
{ACAD_REACTORS
330
40
102
}
330
40
100
AcDbScale
 70
     0
300
3" = 1'-0"
140
3.0
141
12.0
290
     0
  0
SCALE
  5
60
102
{ACAD_REACTORS
330
40
102
}
330
40
100
AcDbScale
 70
     0
300
6" = 1'-0"
140
6.0
141
12.0
290
     0
  0
SCALE
  5
61
102
{ACAD_REACTORS
330
40
102
}
330
40
100
AcDbScale
 70
     0
300
1'-0" = 1'-0"
140
12.0
141
12.0
290
     0
  0
ENDSEC
  0
EOF
